<?xml version="1.0" standalone="no"?><!DOCTYPE svg PUBLIC "-//W3C//DTD SVG 1.1//EN" "http://www.w3.org/Graphics/SVG/1.1/DTD/svg11.dtd" ><svg xmlns="http://www.w3.org/2000/svg"><metadata>Generated by Glyphter</metadata><defs><font id="Icones-app" horiz-adv-x="0"><font-face units-per-em="1024" ascent="1024" descent="0" font-family="Icones-app" font-weight="normal" /><missing-glyph horiz-adv-x="0" /><glyph unicode="&#x0041;" d="M512.357,0C270.035,0,73.5,98.231,73.5,219.429C73.5,264.192,100.636,305.737,146.643,340.407C146.643,340.407,146.643,512,146.643,512C146.643,663.04,238.291,792.649,369.07,848.457C367.095,857.893,366.071,867.694,366.071,877.714C366.071,958.464,431.607,1024,512.357,1024C593.107,1024,658.643,958.464,658.643,877.714C658.643,867.694,657.619,857.893,655.644,848.457C786.35,792.649,878.071,663.04,878.071,512C878.071,512,878.071,340.407,878.071,340.407C924.078,305.664,951.214,264.192,951.214,219.429C951.214,98.231,754.679,0,512.357,0C512.357,0,512.357,0,512.357,0M512.357,365.714C350.785,365.714,219.786,300.178,219.786,219.429C219.786,138.679,350.785,73.143,512.357,73.143C673.93,73.143,804.929,138.679,804.929,219.429C804.929,300.178,673.93,365.714,512.357,365.714C512.357,365.714,512.357,365.714,512.357,365.714M512.357,146.286C440.897,146.286,381.651,197.559,368.851,265.216C407.397,282.039,457.207,292.571,512.357,292.571C567.507,292.571,617.39,282.039,655.937,265.216C643.063,197.559,583.818,146.286,512.357,146.286C512.357,146.286,512.357,146.286,512.357,146.286" /><glyph unicode="&#x0042;" d="M992.576,687.296C940.864,828.8,828.864,940.864,687.232,992.576C720.512,1012.032,758.656,1024,800,1024C923.776,1024,1024,923.712,1024,800C1024,758.656,1011.968,720.512,992.576,687.296C992.576,687.296,992.576,687.296,992.576,687.296M960,512C960,390.144,910.976,279.872,832,199.104C832,199.104,832,192,832,192C832,192,832,64,832,64C832,28.608,803.392,0,768,0C732.608,0,704,28.608,704,64C704,64,704,108.736,704,108.736C645.632,80.896,580.992,64,512,64C442.944,64,378.368,80.896,320,108.736C320,108.736,320,64,320,64C320,28.608,291.328,0,256,0C220.672,0,192,28.608,192,64C192,64,192,192,192,192C192,192,192,199.104,192,199.104C113.024,279.872,64,390.144,64,512C64,759.424,264.576,960,512,960C759.424,960,960,759.424,960,512C960,512,960,512,960,512M512,832C335.296,832,192,688.768,192,512C192,335.232,335.296,192,512,192C688.768,192,832,335.232,832,512C832,688.768,688.768,832,512,832C512,832,512,832,512,832M640,448C640,448,512,448,512,448C476.672,448,448,476.608,448,512C448,512,448,640,448,640C448,675.392,476.672,704,512,704C547.392,704,576,675.392,576,640C576,640,576,576,576,576C576,576,640,576,640,576C675.392,576,704,547.392,704,512C704,476.608,675.392,448,640,448C640,448,640,448,640,448M31.424,687.296C11.968,720.512,0,758.656,0,800C0,923.712,100.288,1024,224,1024C265.344,1024,303.488,1012.032,336.704,992.576C195.136,940.864,83.136,828.8,31.424,687.296C31.424,687.296,31.424,687.296,31.424,687.296" /><glyph unicode="&#x0043;" d="M0,448C0,589.376,114.624,704,256,704C280.32,704,303.424,699.52,325.696,693.184C350.208,809.024,452.864,896,576,896C717.376,896,832,781.376,832,640C832,617.408,828.096,595.904,822.656,575.04C825.792,575.232,828.8,576,832,576C938.048,576,1024,489.984,1024,384C1024,384,1024,384,1024,384C1024,384,1024,320,1024,320C1024,213.952,938.048,128,832,128C832,128,256,128,256,128C114.624,128,0,242.624,0,384C0,384,0,384,0,384C0,384,0,448,0,448C0,448,0,448,0,448" /><glyph unicode="&#x0044;" d="M832,1024C938.048,1024,1024,938.048,1024,832C1024,832,1024,192,1024,192C1024,85.952,938.048,0,832,0C832,0,192,0,192,0C85.952,0,0,85.952,0,192C0,192,0,304.576,0,304.576C0,304.576,56.256,248.32,56.256,248.32C76.8,227.776,101.376,213.12,128,203.712C128,203.712,128,192,128,192C128,156.608,156.672,128,192,128C192,128,832,128,832,128C867.392,128,896,156.608,896,192C896,192,896,832,896,832C896,867.328,867.392,896,832,896C832,896,192,896,192,896C156.672,896,128,867.328,128,832C128,832,128,820.352,128,820.352C101.44,810.944,76.864,796.352,56.256,775.808C56.256,775.808,0,719.552,0,719.552C0,719.552,0,832,0,832C0,938.048,85.952,1024,192,1024C192,1024,832,1024,832,1024C832,1024,832,1024,832,1024M216.512,699.2C240.384,689.344,256,665.92,256,640.064C256,640.064,256,576,256,576C256,576,448,576,448,576C483.392,576,512,547.328,512,512C512,476.608,483.392,448,448,448C448,448,256,448,256,448C256,448,256,384.064,256,384.064C256,358.208,240.384,334.784,216.512,324.928C192.576,315.072,165.056,320.576,146.752,338.816C146.752,338.816,18.752,466.816,18.752,466.816C6.272,479.296,0,495.68,0,512.064C0,528.448,6.272,544.832,18.752,557.312C18.752,557.312,146.752,685.312,146.752,685.312C165.056,703.616,192.576,709.056,216.512,699.2C216.512,699.2,216.512,699.2,216.512,699.2" /><glyph unicode="&#x0045;" d="M832,0C832,0,192,0,192,0C85.952,0,0,86.016,0,192C0,192,0,832,0,832C0,938.048,85.952,1024,192,1024C192,1024,832,1024,832,1024C938.048,1024,1024,938.048,1024,832C1024,832,1024,192,1024,192C1024,86.016,938.048,0,832,0C832,0,832,0,832,0M896,832C896,867.328,867.392,896,832,896C832,896,192,896,192,896C156.672,896,128,867.328,128,832C128,832,128,256,128,256C128,256,896,256,896,256C896,256,896,832,896,832C896,832,896,832,896,832M419.584,551.808C397.632,574.784,384,605.696,384,640C384,640,384,704,384,704C384,774.656,441.344,832,512,832C582.656,832,640,774.656,640,704C640,704,640,640,640,640C640,605.696,626.368,574.784,604.416,551.808C654.656,524.032,694.208,474.688,704,416C704,416,704,416,704,416C704,363.008,660.992,320,608,320C608,320,416,320,416,320C362.944,320,320,363.008,320,416C320,416,320,416,320,416C329.92,474.688,369.408,524.032,419.584,551.808C419.584,551.808,419.584,551.808,419.584,551.808" /><glyph unicode="&#x0046;" d="M832,0C832,0,192,0,192,0C85.952,0,0,85.952,0,192C0,192,0,832,0,832C0,938.048,85.952,1024,192,1024C192,1024,832,1024,832,1024C938.048,1024,1024,938.048,1024,832C1024,832,1024,192,1024,192C1024,85.952,938.048,0,832,0C832,0,832,0,832,0M896,832C896,867.328,867.392,896,832,896C832,896,192,896,192,896C156.608,896,128,867.328,128,832C128,832,128,192,128,192C128,156.608,156.608,128,192,128C192,128,832,128,832,128C867.392,128,896,156.608,896,192C896,192,896,832,896,832C896,832,896,832,896,832M256,384C256,384,768,384,768,384C768,384,768,256,768,256C768,256,256,256,256,256C256,256,256,384,256,384C256,384,256,384,256,384M256,576C256,576,768,576,768,576C768,576,768,448,768,448C768,448,256,448,256,448C256,448,256,576,256,576C256,576,256,576,256,576M256,768C256,768,768,768,768,768C768,768,768,640,768,640C768,640,256,640,256,640C256,640,256,768,256,768C256,768,256,768,256,768" /><glyph unicode="&#x0047;" d="M512,1024C299.968,1024,128,852.032,128,640C128,427.968,512,0,512,0C512,0,896,427.968,896,640C896,852.032,724.032,1024,512,1024C512,1024,512,1024,512,1024M512,384C370.624,384,256,498.624,256,640C256,781.376,370.624,896,512,896C653.376,896,768,781.376,768,640C768,498.624,653.376,384,512,384C512,384,512,384,512,384M512,768C441.344,768,384,710.656,384,640C384,569.344,441.344,512,512,512C582.656,512,640,569.344,640,640C640,710.656,582.656,768,512,768C512,768,512,768,512,768" /><glyph unicode="&#x0048;" d="M998.473,110C938.203,280.35,776.119,402.571,585.143,402.571C585.143,402.571,585.143,256.286,585.143,256.286C585.143,229.296,570.295,204.574,546.523,191.774C522.752,179.047,493.861,180.437,471.479,195.431C471.479,195.431,32.622,488.002,32.622,488.002C12.215,501.607,0,524.427,0,548.857C0,573.287,12.215,596.107,32.549,609.712C32.549,609.712,471.406,902.283,471.406,902.283C493.861,917.205,522.679,918.667,546.45,905.941C570.222,893.214,585.143,868.418,585.143,841.429C585.143,841.429,585.143,695.143,585.143,695.143C827.465,695.143,1024,498.608,1024,256.286C1024,204.939,1014.711,155.787,998.473,110C998.473,110,998.473,110,998.473,110" /><glyph unicode="&#x0049;" d="M896,256C896,256,896,416.064,896,416.064C896,416.064,1024,512.064,1024,512.064C1024,512.064,1024,256,1024,256C1024,149.952,938.048,64,832,64C832,64,192,64,192,64C86.016,64,0,149.952,0,256C0,256,0,576,0,576C0,681.984,86.016,768,192,768C192,768,240.704,768,240.704,768C208,727.296,181.696,681.344,162.56,631.936C142.336,621.184,128,600.512,128,576C128,576,128,256,128,256C128,220.608,156.672,192,192,192C192,192,832,192,832,192C867.392,192,896,220.608,896,256C896,256,896,256,896,256M640,576C472.896,576,331.136,469.056,278.336,320C264.128,360.064,256,403.072,256,448C256,660.032,427.968,832,640,832C640,832,640,896,640,896C640,920.256,653.696,942.4,675.392,953.28C684.416,957.76,694.272,960,704,960C717.568,960,731.136,955.648,742.4,947.2C742.4,947.2,998.4,755.2,998.4,755.2C1014.528,743.104,1024,724.096,1024,704C1024,683.84,1014.528,664.896,998.4,652.8C998.4,652.8,742.4,460.8,742.4,460.8C731.136,452.352,717.568,448,704,448C694.272,448,684.416,450.24,675.392,454.72C653.696,465.6,640,487.744,640,512C640,512,640,576,640,576C640,576,640,576,640,576" /><glyph unicode="&#x004a;" d="M1024,512.482C1023.845,228.832,793.915,-1.097,508.924,0.508C226.834,2.114,-1.956,231.526,0.013,516.263C1.929,798.094,231.393,1026.677,516.228,1024.45C797.126,1022.223,1023.793,794.468,1024,512.482C1024,512.482,1024,512.482,1024,512.482M705.082,700.352C659.914,728.634,610.707,744.38,557.925,750.699C557.925,783.28,557.925,815.757,557.925,848.338C528.141,848.338,498.668,848.338,468.885,848.338C468.885,815.498,468.885,782.814,468.885,750.026C465.829,749.456,463.083,748.938,460.286,748.42C436.149,743.603,413.151,735.678,392.172,722.47C366.895,706.568,347.886,685.331,337.474,657.049C328.876,633.74,327.374,609.706,331.31,585.258C334.833,563.503,343.949,544.441,359.074,528.332C371.039,515.59,385.335,506.059,400.823,498.29C421.231,488.034,442.831,481.145,464.689,474.929C485.253,469.076,505.92,463.43,526.38,457.266C538.242,453.692,549.741,448.926,559.945,441.623C569.528,434.786,576.158,426.084,576.779,413.911C577.504,399.201,570.771,388.628,557.977,381.791C546.322,375.575,533.632,373.969,520.734,373.607C507.681,373.244,494.732,374.902,482.041,377.802C436.459,388.214,395.229,408.006,357.934,436.132C354.36,438.826,350.942,441.675,347.316,444.627C331.414,412.565,315.564,380.651,299.662,348.64C349.543,309.015,406.313,286.276,468.885,276.849C468.885,275.606,468.885,274.518,468.885,273.378C468.885,241.16,468.937,208.994,468.833,176.776C468.833,174.289,469.455,173.616,471.941,173.616C499.549,173.72,527.209,173.668,554.817,173.668C555.749,173.668,556.682,173.668,557.925,173.668C557.925,175.066,557.925,176.154,557.925,177.242C557.925,208.994,557.925,240.798,557.925,272.55C557.925,273.223,557.718,274.052,557.977,274.621C558.339,275.347,558.961,276.383,559.634,276.538C567.145,278.04,574.759,279.128,582.166,280.837C606.097,286.328,628.68,295.185,648.985,309.274C672.605,325.694,689.802,347.138,698.918,374.694C705.652,395.212,706.895,416.19,704.512,437.531C702.803,452.656,698.504,467.004,691.252,480.419C680.582,500.051,664.783,514.709,646.033,526.364C627.334,537.967,607.081,546.202,586.206,552.729C564.244,559.618,542.023,565.834,520.009,572.516C506.334,576.659,492.815,581.269,480.384,588.573C473.961,592.354,468.056,596.809,463.757,603.076C454.071,617.165,455.884,638.661,475.618,647.674C483.129,651.093,491.002,652.647,499.135,653.216C513.327,654.2,527.364,652.439,541.194,649.383C577.038,641.51,610.862,628.043,643.443,611.364C648.519,608.774,653.543,606.029,658.775,603.232C674.211,635.553,689.543,667.771,705.082,700.352C705.082,700.352,705.082,700.352,705.082,700.352" class="icon-icone"/><glyph unicode="&#x004b;" d="M1024,448.992C1024,448.992,1024,576.992,1024,576.992C1024,576.992,871.008,640.736,871.008,640.736C866.752,652.736,862.272,664.352,856.768,675.744C856.768,675.744,918.528,829.504,918.528,829.504C918.528,829.504,828,920,828,920C828,920,675.616,857.248,675.616,857.248C664,862.88,652.128,867.616,639.872,872C639.872,872,575.008,1024,575.008,1024C575.008,1024,447.008,1024,447.008,1024C447.008,1024,383.744,872.512,383.744,872.512C371.008,868,358.752,863.264,346.624,857.504C346.624,857.504,194.496,918.624,194.496,918.624C194.496,918.624,104,828.128,104,828.128C104,828.128,166.016,677.376,166.016,677.376C160,664.992,155.136,652.384,150.496,639.36C150.496,639.36,0,575.008,0,575.008C0,575.008,0,447.008,0,447.008C0,447.008,150.624,384.256,150.624,384.256C155.264,371.264,160.256,358.624,166.24,346.24C166.24,346.24,105.376,194.496,105.376,194.496C105.376,194.496,195.872,104,195.872,104C195.872,104,347.008,166.24,347.008,166.24C359.136,160.48,371.52,155.872,384.256,151.488C384.256,151.488,448.992,0,448.992,0C448.992,0,576.992,0,576.992,0C576.992,0,640.352,152.256,640.352,152.256C652.48,156.768,664.48,161.504,675.968,167.008C675.968,167.008,829.472,105.504,829.472,105.504C829.472,105.504,919.968,196,919.968,196C919.968,196,856.96,348.736,856.96,348.736C862.336,360.224,866.72,371.872,870.976,383.744C870.976,383.744,1024,448.992,1024,448.992C1024,448.992,1024,448.992,1024,448.992M511.008,320C405.024,320,319.008,406.016,319.008,512C319.008,617.984,405.024,704,511.008,704C616.992,704,703.008,617.984,703.008,512C703.008,406.016,616.992,320,511.008,320C511.008,320,511.008,320,511.008,320" /><glyph unicode="&#x004c;" d="M832,192C832,192,640,192,640,192C640,192,512,0,512,0C512,0,384,192,384,192C384,192,192,192,192,192C85.952,192,0,278.016,0,384C0,384,0,832,0,832C0,938.048,85.952,1024,192,1024C192,1024,832,1024,832,1024C938.048,1024,1024,938.048,1024,832C1024,832,1024,384,1024,384C1024,278.016,938.048,192,832,192C832,192,832,192,832,192M192,384C192,384,512,384,512,384C512,384,512,448,512,448C512,448,192,448,192,448C192,448,192,384,192,384C192,384,192,384,192,384M832,832C832,832,192,832,192,832C192,832,192,768,192,768C192,768,832,768,832,768C832,768,832,832,832,832C832,832,832,832,832,832M832,704C832,704,192,704,192,704C192,704,192,640,192,640C192,640,832,640,832,640C832,640,832,704,832,704C832,704,832,704,832,704M832,576C832,576,192,576,192,576C192,576,192,512,192,512C192,512,832,512,832,512C832,512,832,576,832,576C832,576,832,576,832,576" /><glyph unicode="&#x004d;" d="M512,1024C229.248,1024,0,794.752,0,512C0,229.248,229.248,0,512,0C794.752,0,1024,229.248,1024,512C1024,794.752,794.752,1024,512,1024C512,1024,512,1024,512,1024M512,128C299.968,128,128,299.968,128,512C128,724.032,299.968,896,512,896C724.032,896,896,724.032,896,512C896,299.968,724.032,128,512,128C512,128,512,128,512,128M606.08,641.408C606.08,641.408,512,831.936,512,831.936C512,831.936,417.984,641.408,417.984,641.408C417.984,641.408,207.68,610.816,207.68,610.816C207.68,610.816,359.872,462.528,359.872,462.528C359.872,462.528,323.904,253.184,323.904,253.184C323.904,253.184,512,352,512,352C512,352,700.032,253.12,700.032,253.12C700.032,253.12,664.128,462.464,664.128,462.464C664.128,462.464,816.256,610.752,816.256,610.752C816.256,610.752,606.08,641.408,606.08,641.408C606.08,641.408,606.08,641.408,606.08,641.408" /><glyph unicode="&#x004e;" d="M967.744,248.256C967.744,248.256,775.744,56.256,775.744,56.256C700.736,-18.752,579.264,-18.752,504.256,56.256C504.256,56.256,184.256,376.256,184.256,376.256C146.752,413.76,128,462.848,128,512C128,512,128,896,128,896C128,896,320,896,320,896C320,931.392,291.392,960,256,960C256,960,128,960,128,960C92.608,960,64,931.392,64,896C64,896,64,800,64,800C64,782.336,49.664,768,32,768C14.336,768,0,782.336,0,800C0,800,0,896,0,896C0,966.656,57.344,1024,128,1024C128,1024,256,1024,256,1024C326.656,1024,384,966.656,384,896C384,896,384,896,384,896C384,896,384,672,384,672C384,654.336,369.664,640,352,640C334.336,640,320,654.336,320,672C320,672,320,761.536,320,761.536C282.88,748.224,256,713.664,256,672C256,619.008,299.008,576,352,576C404.992,576,448,619.008,448,672C448,672,448,896,448,896C448,896,512,896,512,896C561.152,896,610.24,877.248,647.744,839.744C647.744,839.744,967.744,519.744,967.744,519.744C1042.752,444.736,1042.752,323.264,967.744,248.256C967.744,248.256,967.744,248.256,967.744,248.256" /><glyph unicode="&#x0050;" d="M951.357,146.286C951.357,146.286,878.214,146.286,878.214,146.286C878.214,146.286,878.214,73.143,878.214,73.143C878.214,32.695,845.519,0,805.071,0C764.623,0,731.929,32.695,731.929,73.143C731.929,73.143,731.929,146.286,731.929,146.286C731.929,146.286,658.786,146.286,658.786,146.286C618.338,146.286,585.643,178.981,585.643,219.429C585.643,259.877,618.338,292.571,658.786,292.571C658.786,292.571,731.929,292.571,731.929,292.571C731.929,292.571,731.929,365.714,731.929,365.714C731.929,406.162,764.623,438.857,805.071,438.857C845.519,438.857,878.214,406.162,878.214,365.714C878.214,365.714,878.214,292.571,878.214,292.571C878.214,292.571,951.357,292.571,951.357,292.571C991.805,292.571,1024.5,259.877,1024.5,219.429C1024.5,178.981,991.805,146.286,951.357,146.286C951.357,146.286,951.357,146.286,951.357,146.286M595.956,428.544C505.551,401.408,439.357,318.537,439.357,219.429C439.357,123.977,500.578,43.666,585.643,13.458C585.643,13.458,585.643,0,585.643,0C585.643,0,73.643,0,73.643,0C33.268,0,0.5,32.695,0.5,73.143C0.5,219.429,141.885,355.913,286.415,409.893C202.959,461.458,146.786,553.033,146.786,658.286C146.786,658.286,146.786,731.429,146.786,731.429C146.786,893.001,277.785,1024,439.357,1024C600.93,1024,731.929,893.001,731.929,731.429C731.929,731.429,731.929,658.286,731.929,658.286C731.929,624.201,724.322,592.53,713.497,562.249C657.835,535.771,613.949,488.594,595.956,428.544C595.956,428.544,595.956,428.544,595.956,428.544" /><glyph unicode="&#x0051;" d="M512,0C229.248,0,0,229.248,0,512C0,794.752,229.248,1024,512,1024C794.752,1024,1024,794.752,1024,512C1024,229.248,794.752,0,512,0C512,0,512,0,512,0M512,896C299.968,896,128,724.032,128,512C128,299.904,299.968,128,512,128C724.032,128,896,299.904,896,512C896,724.032,724.032,896,512,896C512,896,512,896,512,896M512,192C443.072,192,379.648,214.272,327.36,251.392C322.752,262.656,320,275.008,320,288C320,288,320,288,320,288C329.856,346.688,369.344,396.032,419.648,423.808C397.632,446.72,384,477.76,384,512C384,512,384,576,384,576C384,646.656,441.344,704,512,704C582.656,704,640,646.656,640,576C640,576,640,512,640,512C640,477.76,626.368,446.72,604.416,423.808C654.656,396.032,694.144,346.688,704,288C704,288,704,288,704,288C704,275.008,701.248,262.656,696.64,251.392C644.352,214.272,580.928,192,512,192C512,192,512,192,512,192" /><glyph unicode="&#x0052;" d="M951.214,73.143C951.214,32.695,918.519,0,878.071,0C878.071,0,146.643,0,146.643,0C106.268,0,73.5,32.695,73.5,73.143C73.5,219.429,214.885,355.913,359.415,409.893C275.959,461.458,219.786,553.033,219.786,658.286C219.786,658.286,219.786,731.429,219.786,731.429C219.786,893.001,350.785,1024,512.357,1024C673.93,1024,804.929,893.001,804.929,731.429C804.929,731.429,804.929,658.286,804.929,658.286C804.929,553.033,748.755,461.458,665.372,409.893C809.829,355.913,951.214,219.429,951.214,73.143C951.214,73.143,951.214,73.143,951.214,73.143" /><glyph unicode="&#x0053;" d="M896,203.776C896,203.776,896,704,896,704C896,810.048,810.048,896,704,896C704,896,203.776,896,203.776,896C230.208,970.432,300.48,1024,384,1024C384,1024,832,1024,832,1024C938.048,1024,1024,938.048,1024,832C1024,832,1024,384,1024,384C1024,300.48,970.368,230.208,896,203.776C896,203.776,896,203.776,896,203.776M832,640C832,640,832,192,832,192C832,86.016,746.048,0,640,0C640,0,192,0,192,0C85.952,0,0,86.016,0,192C0,192,0,640,0,640C0,746.048,85.952,832,192,832C192,832,640,832,640,832C746.048,832,832,746.048,832,640C832,640,832,640,832,640M128,640C128,640,128,192,128,192C128,156.608,156.608,128,192,128C192,128,640,128,640,128C675.392,128,704,156.608,704,192C704,192,704,640,704,640C704,675.328,675.392,704,640,704C640,704,192,704,192,704C156.608,704,128,675.328,128,640C128,640,128,640,128,640" /><glyph unicode="&#x0054;" d="M896,704C896,704,896,192,896,192C896,86.016,809.984,0,704,0C704,0,320,0,320,0C213.952,0,128,86.016,128,192C128,192,128,704,128,704C92.672,704,64,732.672,64,768C64,803.328,92.672,832,128,832C128,832,320,832,320,832C320,938.048,405.952,1024,512,1024C617.984,1024,704,938.048,704,832C704,832,896,832,896,832C931.392,832,960,803.328,960,768C960,732.672,931.392,704,896,704C896,704,896,704,896,704M512,896C476.672,896,448,867.328,448,832C448,832,576,832,576,832C576,867.328,547.328,896,512,896C512,896,512,896,512,896M768,704C768,704,256,704,256,704C256,704,256,192,256,192C256,156.608,284.672,128,320,128C320,128,704,128,704,128C739.392,128,768,156.608,768,192C768,192,768,704,768,704C768,704,768,704,768,704M640,640C640,640,704,640,704,640C704,640,704,192,704,192C704,192,640,192,640,192C640,192,640,640,640,640C640,640,640,640,640,640M448,640C448,640,576,640,576,640C576,640,576,192,576,192C576,192,448,192,448,192C448,192,448,640,448,640C448,640,448,640,448,640M320,640C320,640,384,640,384,640C384,640,384,192,384,192C384,192,320,192,320,192C320,192,320,640,320,640C320,640,320,640,320,640" /><glyph unicode="&#x0055;" d="M512,0C229.248,0,0,229.248,0,512C0,794.752,229.248,1024,512,1024C794.752,1024,1024,794.752,1024,512C1024,229.248,794.752,0,512,0C512,0,512,0,512,0M512,896C299.968,896,128,724.032,128,512C128,299.968,299.968,128,512,128C724.032,128,896,299.968,896,512C896,724.032,724.032,896,512,896C512,896,512,896,512,896M704,448C704,448,576,448,576,448C576,448,576,320,576,320C576,284.608,547.392,256,512,256C476.672,256,448,284.608,448,320C448,320,448,448,448,448C448,448,320,448,320,448C284.672,448,256,476.608,256,512C256,547.328,284.672,576,320,576C320,576,448,576,448,576C448,576,448,704,448,704C448,739.328,476.672,768,512,768C547.392,768,576,739.328,576,704C576,704,576,576,576,576C576,576,704,576,704,576C739.392,576,768,547.328,768,512C768,476.608,739.392,448,704,448C704,448,704,448,704,448" /><glyph unicode="&#x0056;" d="M832,0C832,0,192,0,192,0C85.952,0,0,86.016,0,192C0,192,0,832,0,832C0,915.456,53.632,985.792,128,1012.224C128,1012.224,128,928,128,928C128,874.944,171.008,832,224,832C276.992,832,320,874.944,320,928C320,928,320,1024,320,1024C320,1024,704,1024,704,1024C704,1024,704,928,704,928C704,874.944,747.008,832,800,832C852.992,832,896,874.944,896,928C896,928,896,1012.224,896,1012.224C970.368,985.792,1024,915.456,1024,832C1024,832,1024,192,1024,192C1024,86.016,938.048,0,832,0C832,0,832,0,832,0M896,704C896,704,128,704,128,704C128,704,128,192,128,192C128,156.608,156.608,128,192,128C192,128,832,128,832,128C867.392,128,896,156.608,896,192C896,192,896,704,896,704C896,704,896,704,896,704M640,384C640,384,768,384,768,384C768,384,768,256,768,256C768,256,640,256,640,256C640,256,640,384,640,384C640,384,640,384,640,384M640,576C640,576,768,576,768,576C768,576,768,448,768,448C768,448,640,448,640,448C640,448,640,576,640,576C640,576,640,576,640,576M448,384C448,384,576,384,576,384C576,384,576,256,576,256C576,256,448,256,448,256C448,256,448,384,448,384C448,384,448,384,448,384M448,576C448,576,576,576,576,576C576,576,576,448,576,448C576,448,448,448,448,448C448,448,448,576,448,576C448,576,448,576,448,576M256,384C256,384,384,384,384,384C384,384,384,256,384,256C384,256,256,256,256,256C256,256,256,384,256,384C256,384,256,384,256,384M256,576C256,576,384,576,384,576C384,576,384,448,384,448C384,448,256,448,256,448C256,448,256,576,256,576C256,576,256,576,256,576M800,896C782.336,896,768,910.336,768,928C768,928,768,1024,768,1024C768,1024,832,1024,832,1024C832,1024,832,928,832,928C832,910.336,817.664,896,800,896C800,896,800,896,800,896M224,896C206.336,896,192,910.336,192,928C192,928,192,1024,192,1024C192,1024,256,1024,256,1024C256,1024,256,928,256,928C256,910.336,241.664,896,224,896C224,896,224,896,224,896" /><glyph unicode="&#x0057;" d="M736,960C736,995.392,764.608,1024,800,1024C835.392,1024,864,995.392,864,960C864,960,864,352,864,352C864,157.568,706.368,0,512,0C317.632,0,160,157.568,160,352C160,352,160,768,160,768C160,909.376,274.624,1024,416,1024C557.376,1024,672,909.376,672,768C672,768,672,352,672,352C672,263.616,600.384,192,512,192C423.616,192,352,263.616,352,352C352,352,352,768,352,768C352,803.328,380.608,832,416,832C451.392,832,480,803.328,480,768C480,768,480,352,480,352C480,334.336,494.336,320,512,320C529.664,320,544,334.336,544,352C544,352,544,768,544,768C544,838.656,486.656,896,416,896C345.344,896,288,838.656,288,768C288,768,288,352,288,352C288,228.288,388.288,128,512,128C635.712,128,736,228.288,736,352C736,352,736,960,736,960C736,960,736,960,736,960" /><glyph unicode="&#x0058;" d="M948.954,519.969C948.954,519.969,512,67,512,67C512,67,75.046,519.969,75.046,519.969C-25.015,620.03,-25.015,782.295,75.046,882.356C175.108,982.418,337.372,982.418,437.434,882.356C437.434,882.356,512,791.711,512,791.711C512,791.711,586.566,882.292,586.566,882.292C686.628,982.354,848.892,982.354,948.954,882.292C1049.015,782.295,1049.015,620.03,948.954,519.969C948.954,519.969,948.954,519.969,948.954,519.969" /><glyph unicode="&#x0059;" d="M948.954,519.969C948.954,519.969,512,67,512,67C512,67,75.046,519.969,75.046,519.969C-25.015,620.03,-25.015,782.295,75.046,882.356C175.108,982.418,337.372,982.418,437.434,882.356C437.434,882.356,512,791.711,512,791.711C512,791.711,586.566,882.292,586.566,882.292C686.628,982.354,848.892,982.354,948.954,882.292C1049.015,782.295,1049.015,620.03,948.954,519.969C948.954,519.969,948.954,519.969,948.954,519.969M677.147,791.711C677.147,791.711,512,610.55,512,610.55C512,610.55,346.853,791.711,346.853,791.711C296.822,841.742,215.658,841.742,165.627,791.711C115.66,741.681,115.66,660.58,165.627,610.55C165.627,610.55,512,248.162,512,248.162C512,248.162,858.373,610.55,858.373,610.55C908.34,660.58,908.34,741.681,858.373,791.711C808.342,841.806,727.178,841.806,677.147,791.711C677.147,791.711,677.147,791.711,677.147,791.711" /><glyph unicode="&#x005a;" d="M1011.851,825.701C1011.851,825.701,699.618,511.566,699.618,511.566C699.618,511.566,1011.851,199.299,1011.851,199.299C1024.921,186.263,1024.921,165.112,1011.851,152.042C1011.851,152.042,870.078,10.303,870.078,10.303C857.075,-2.768,835.925,-2.768,822.854,10.303C822.854,10.303,511.131,322.027,511.131,322.027C511.131,322.027,201.274,10.303,201.274,10.303C188.237,-2.768,167.087,-2.768,154.016,10.303C154.016,10.303,12.277,152.042,12.277,152.042C-0.759,165.112,-0.759,186.263,12.277,199.299C12.277,199.299,322.134,511.023,322.134,511.023C322.134,511.023,12.311,820.846,12.311,820.846C-0.725,833.882,-0.725,855.033,12.311,868.103C12.311,868.103,154.05,1009.842,154.05,1009.842C167.087,1022.913,188.237,1022.913,201.308,1009.842C201.308,1009.842,510.587,700.563,510.587,700.563C510.587,700.563,822.888,1014.697,822.888,1014.697C835.959,1027.768,857.109,1027.768,870.112,1014.697C870.112,1014.697,1011.885,872.958,1011.885,872.958C1024.887,859.888,1024.887,838.737,1011.851,825.701C1011.851,825.701,1011.851,825.701,1011.851,825.701" /><glyph unicode="&#x0061;" d="M1014.592,795.789C1014.592,795.789,923.74,886.64,923.74,886.64C911.164,899.217,890.907,899.217,878.33,886.64C878.33,886.64,413.832,396.253,413.832,396.253C413.832,396.253,147.582,662.631,147.582,662.631C134.877,675.336,114.268,675.336,101.564,662.631C101.564,662.631,9.528,570.532,9.528,570.532C-3.176,557.859,-3.176,537.25,9.528,524.514C9.528,524.514,388.199,137.043,388.199,137.043C395.527,129.683,405.48,127.154,415.048,128.402C424.937,126.93,435.241,129.427,442.825,137.043C442.825,137.043,1014.592,750.347,1014.592,750.347C1027.136,762.891,1027.136,783.244,1014.592,795.789C1014.592,795.789,1014.592,795.789,1014.592,795.789" /><glyph unicode="&#x0062;" d="M992,640C992,640,640,640,640,640C640,640,640,992,640,992C640,1009.664,625.696,1024,608,1024C608,1024,416,1024,416,1024C398.304,1024,384,1009.664,384,992C384,992,384,640,384,640C384,640,32,640,32,640C14.304,640,0,625.664,0,608C0,608,0,416,0,416C0,398.304,14.304,384,32,384C32,384,384,384,384,384C384,384,384,32,384,32C384,14.304,398.304,0,416,0C416,0,608,0,608,0C625.696,0,640,14.304,640,32C640,32,640,384,640,384C640,384,992,384,992,384C1009.696,384,1024,398.304,1024,416C1024,416,1024,608,1024,608C1024,625.664,1009.696,640,992,640C992,640,992,640,992,640" /><glyph unicode="&#x0063;" d="M996.324,28.176C958.755,-9.392,897.914,-9.392,860.346,28.176C860.346,28.176,690.646,197.876,690.646,197.876C620.83,153.191,538.32,126.457,449.271,126.457C201.421,126.457,0.5,327.379,0.5,575.229C0.5,823.079,201.421,1024,449.271,1024C697.121,1024,898.043,823.079,898.043,575.229C898.043,486.18,871.309,403.67,826.624,333.854C826.624,333.854,996.324,164.154,996.324,164.154C1033.892,126.586,1033.892,65.745,996.324,28.176C996.324,28.176,996.324,28.176,996.324,28.176M449.271,895.78C272.263,895.78,128.72,752.301,128.72,575.229C128.72,398.156,272.263,254.678,449.271,254.678C626.344,254.678,769.822,398.156,769.822,575.229C769.822,752.301,626.344,895.78,449.271,895.78C449.271,895.78,449.271,895.78,449.271,895.78" /><glyph unicode="&#x0064;" d="M32,640C32,640,992,640,992,640C1009.696,640,1024,625.664,1024,608C1024,608,1024,416,1024,416C1024,398.304,1009.696,384,992,384C992,384,32,384,32,384C14.336,384,0,398.304,0,416C0,416,0,608,0,608C0,625.664,14.336,640,32,640C32,640,32,640,32,640" /><glyph unicode="&#x0065;" d="M68.489,985.797C109.366,1026.77,232.924,1033.615,233.852,1011.929C234.78,990.275,345.128,749.938,346.088,728.252C347.048,706.598,273.354,632.713,251.796,611.091C230.43,589.693,395.985,402.132,399.119,398.581C402.638,395.415,589.751,229.476,611.117,250.906C632.675,272.528,706.401,346.381,727.959,345.422C749.581,344.494,989.374,233.89,1010.996,232.898C1032.618,231.97,1025.805,108.156,984.928,67.151C949.968,32.127,768.964,-95.046,454.23,132.049C419.718,151.944,365.055,197.586,282.15,280.652C282.118,280.684,282.054,280.748,281.99,280.78C281.926,280.876,281.862,280.908,281.798,280.972C281.734,281.036,281.67,281.1,281.606,281.164C281.574,281.228,281.51,281.292,281.478,281.324C198.636,364.421,153.09,419.244,133.227,453.82C-93.324,769.321,33.561,950.773,68.489,985.797C68.489,985.797,68.489,985.797,68.489,985.797" /><glyph unicode="&#x0066;" d="M928,896C928,896,96,896,96,896C42.976,896,0,853.024,0,800C0,800,0,224,0,224C0,171.008,42.976,128,96,128C96,128,928,128,928,128C981.024,128,1024,171.008,1024,224C1024,224,1024,800,1024,800C1024,853.024,981.024,896,928,896C928,896,928,896,928,896M87.712,192.32C87.712,192.32,64.32,215.744,64.32,215.744C64.32,215.744,328.288,479.68,328.288,479.68C328.288,479.68,351.68,456.256,351.68,456.256C351.68,456.256,87.712,192.32,87.712,192.32C87.712,192.32,87.712,192.32,87.712,192.32M936.288,192.32C936.288,192.32,672.32,456.256,672.32,456.256C672.32,456.256,695.712,479.68,695.712,479.68C695.712,479.68,959.68,215.744,959.68,215.744C959.68,215.744,936.288,192.32,936.288,192.32C936.288,192.32,936.288,192.32,936.288,192.32M544,405.6C544,405.6,544,384,544,384C544,384,480,384,480,384C480,384,480,405.6,480,405.6C480,405.6,64.096,791.2,64.096,791.2C64.096,791.2,104.8,831.904,104.8,831.904C104.8,831.904,512,454.368,512,454.368C512,454.368,919.2,831.904,919.2,831.904C919.2,831.904,959.904,791.2,959.904,791.2C959.904,791.2,544,405.6,544,405.6C544,405.6,544,405.6,544,405.6" /><glyph unicode="&#x0067;" d="M1024,650.068C1024,650.068,1024,216.847,1024,216.847C1024,179.112,1010.456,146.683,983.369,119.631C956.282,92.578,923.888,79.034,886.153,79C886.153,79,137.847,79,137.847,79C100.112,79,67.683,92.544,40.631,119.631C13.578,146.718,0.034,179.112,0,216.847C0,216.847,0,807.627,0,807.627C0,845.363,13.544,877.792,40.631,904.844C67.718,931.897,100.112,945.44,137.847,945.475C137.847,945.475,334.763,945.475,334.763,945.475C372.498,945.475,404.927,931.931,431.98,904.844C459.032,877.757,472.576,845.363,472.61,807.627C472.61,807.627,472.61,787.95,472.61,787.95C472.61,787.95,886.153,787.95,886.153,787.95C923.888,787.95,956.317,774.406,983.369,747.319C1010.422,720.232,1023.966,687.838,1024,650.102C1024,650.102,1024,650.068,1024,650.068" /><glyph unicode="&#x0068;" d="M768.192,192.009C768.192,192.009,768.192,234.682,768.192,234.682C768.192,240.917,766.176,246.032,762.181,250.027C758.186,254.021,753.071,256.037,746.836,256.037C746.836,256.037,277.509,256.037,277.509,256.037C271.275,256.037,266.16,254.021,262.165,250.027C258.17,246.032,256.154,240.917,256.154,234.682C256.154,234.682,256.154,192.009,256.154,192.009C256.154,185.775,258.17,180.66,262.165,176.665C266.16,172.67,271.275,170.654,277.509,170.654C277.509,170.654,746.836,170.654,746.836,170.654C753.071,170.654,758.186,172.67,762.181,176.665C766.176,180.66,768.192,185.775,768.192,192.009C768.192,192.009,768.192,192.009,768.192,192.009M768.192,362.664C768.192,362.664,768.192,405.336,768.192,405.336C768.192,411.571,766.176,416.686,762.181,420.681C758.186,424.676,753.071,426.692,746.836,426.692C746.836,426.692,277.509,426.692,277.509,426.692C271.275,426.692,266.16,424.676,262.165,420.681C258.17,416.686,256.154,411.571,256.154,405.336C256.154,405.336,256.154,362.664,256.154,362.664C256.154,356.429,258.17,351.314,262.165,347.319C266.16,343.324,271.275,341.308,277.509,341.308C277.509,341.308,746.836,341.308,746.836,341.308C753.071,341.308,758.186,343.324,762.181,347.319C766.176,351.314,768.192,356.429,768.192,362.664C768.192,362.664,768.192,362.664,768.192,362.664M938.846,597.346C938.846,597.346,938.846,63.991,938.846,63.991C938.846,46.22,932.611,31.099,920.179,18.667C907.746,6.235,892.626,0,874.855,0C874.855,0,149.491,0,149.491,0C131.72,0,116.599,6.235,104.167,18.667C91.735,31.099,85.5,46.22,85.5,63.991C85.5,63.991,85.5,960.009,85.5,960.009C85.5,977.78,91.735,992.901,104.167,1005.333C116.599,1017.765,131.72,1024,149.491,1024C149.491,1024,512.154,1024,512.154,1024C512.154,1024,512.154,661.336,512.154,661.336C512.154,643.565,518.389,628.445,530.821,616.013C543.254,603.581,558.374,597.346,576.145,597.346C576.145,597.346,938.808,597.346,938.808,597.346C938.808,597.346,938.846,597.346,938.846,597.346M936.867,682.654C936.867,682.654,597.537,682.654,597.537,682.654C597.537,682.654,597.537,1021.984,597.537,1021.984C633.975,1015.301,663.32,1000.853,685.534,978.639C685.534,978.639,893.522,770.651,893.522,770.651C915.736,748.437,930.184,719.092,936.867,682.654C936.867,682.654,936.867,682.654,936.867,682.654" /><glyph unicode="&#x0069;" d="M341.323,682.762C341.323,654.298,331.378,630.136,311.456,610.214C291.535,590.293,267.372,580.347,238.908,580.347C210.445,580.347,186.282,590.293,166.361,610.214C146.439,630.136,136.494,654.298,136.494,682.762C136.494,711.225,146.439,735.388,166.361,755.309C186.282,775.231,210.445,785.177,238.908,785.177C267.372,785.177,291.535,775.231,311.456,755.309C331.378,735.388,341.323,711.225,341.323,682.762C341.323,682.762,341.323,682.762,341.323,682.762M887.447,477.962C887.447,477.962,887.447,239.023,887.447,239.023C887.447,239.023,136.494,239.023,136.494,239.023C136.494,239.023,136.494,341.438,136.494,341.438C136.494,341.438,307.155,512.1,307.155,512.1C307.155,512.1,392.486,426.769,392.486,426.769C392.486,426.769,665.563,699.846,665.563,699.846C665.563,699.846,887.447,477.962,887.447,477.962M938.669,853.453C938.669,853.453,85.331,853.453,85.331,853.453C80.701,853.453,76.699,851.751,73.324,848.376C69.949,845.001,68.247,840.999,68.247,836.369C68.247,836.369,68.247,187.831,68.247,187.831C68.247,183.201,69.949,179.199,73.324,175.824C76.699,172.449,80.701,170.747,85.331,170.747C85.331,170.747,938.669,170.747,938.669,170.747C943.299,170.747,947.301,172.449,950.676,175.824C954.051,179.199,955.753,183.201,955.753,187.831C955.753,187.831,955.753,836.369,955.753,836.369C955.753,840.999,954.051,845.001,950.676,848.376C947.301,851.751,943.299,853.453,938.669,853.453C938.669,853.453,938.669,853.453,938.669,853.453M1024,836.369C1024,836.369,1024,187.831,1024,187.831C1024,164.355,1015.637,144.254,998.941,127.559C982.246,110.863,962.145,102.5,938.669,102.5C938.669,102.5,85.331,102.5,85.331,102.5C61.855,102.5,41.754,110.863,25.059,127.559C8.363,144.254,0,164.355,0,187.831C0,187.831,0,836.369,0,836.369C0,859.845,8.363,879.946,25.059,896.641C41.754,913.337,61.855,921.7,85.331,921.7C85.331,921.7,938.669,921.7,938.669,921.7C962.145,921.7,982.246,913.337,998.941,896.641C1015.637,879.946,1024,859.845,1024,836.369C1024,836.369,1024,836.369,1024,836.369" /><glyph unicode="&#x006a;" d="M896,704C896,704,896,192,896,192C896,85.952,809.984,0,704,0C704,0,320,0,320,0C213.952,0,128,85.952,128,192C128,192,128,704,128,704C92.672,704,64,732.608,64,768C64,803.392,92.672,832,128,832C128,832,320,832,320,832C320,832,320,832,320,832C320,938.048,405.952,1024,512,1024C617.984,1024,704,938.048,704,832C704,832,704,832,704,832C704,832,896,832,896,832C931.392,832,960,803.392,960,768C960,732.608,931.392,704,896,704C896,704,896,704,896,704M512,896C476.672,896,448,867.392,448,832C448,832,576,832,576,832C576,867.392,547.392,896,512,896C512,896,512,896,512,896M256,704C256,704,256,192,256,192C256,156.608,284.672,128,320,128C320,128,704,128,704,128C739.392,128,768,156.608,768,192C768,192,768,704,768,704C768,704,256,704,256,704C256,704,256,704,256,704M608,256C590.4,256,576,270.336,576,288C576,288,576,544,576,544C576,561.664,590.4,576,608,576C625.664,576,640,561.664,640,544C640,544,640,288,640,288C640,270.336,625.664,256,608,256C608,256,608,256,608,256M416,256C398.336,256,384,270.336,384,288C384,288,384,544,384,544C384,561.664,398.336,576,416,576C433.664,576,448,561.664,448,544C448,544,448,288,448,288C448,270.336,433.664,256,416,256C416,256,416,256,416,256" /><glyph unicode="&#x006b;" d="M907.97,158.702C907.97,158.702,907.97,590.679,907.97,590.679C907.97,590.679,817.961,590.679,817.961,590.679C826.846,562.679,831.288,533.56,831.288,503.357C831.288,447.358,817.065,395.69,788.617,348.352C760.169,301.014,721.493,263.569,672.624,236.018C623.756,208.466,570.407,194.69,512.616,194.69C425.071,194.69,350.181,224.818,287.948,285.036C225.714,345.253,194.616,418.052,194.616,503.357C194.616,533.56,199.058,562.679,207.943,590.679C207.943,590.679,113.94,590.679,113.94,590.679C113.94,590.679,113.94,158.702,113.94,158.702C113.94,147.166,117.822,137.497,125.625,129.694C133.427,121.891,143.096,118.009,154.632,118.009C154.632,118.009,867.277,118.009,867.277,118.009C878.365,118.009,887.922,121.891,895.949,129.694C903.975,137.497,907.97,147.166,907.932,158.702C907.932,158.702,907.97,158.702,907.97,158.702M718.655,514.035C718.655,569.138,698.533,616.14,658.326,655.04C618.118,693.941,569.548,713.392,512.653,713.392C456.206,713.392,407.86,693.941,367.653,655.04C327.446,616.14,307.323,569.138,307.323,514.035C307.323,458.931,327.446,411.93,367.653,373.029C407.86,334.128,456.206,314.678,512.653,314.678C569.548,314.678,618.118,334.128,658.326,373.029C698.533,411.93,718.655,458.931,718.655,514.035C718.655,514.035,718.655,514.035,718.655,514.035M907.97,754.01C907.97,754.01,907.97,863.992,907.97,863.992C907.97,876.424,903.527,887.213,894.642,896.322C885.757,905.431,874.856,909.986,861.976,909.986C861.976,909.986,745.983,909.986,745.983,909.986C733.103,909.986,722.202,905.431,713.317,896.322C704.432,887.213,699.989,876.424,699.989,863.992C699.989,863.992,699.989,754.01,699.989,754.01C699.989,741.13,704.432,730.229,713.317,721.343C722.202,712.458,733.103,708.016,745.983,708.016C745.983,708.016,861.976,708.016,861.976,708.016C874.856,708.016,885.757,712.458,894.642,721.343C903.527,730.229,907.97,741.13,907.97,754.01C907.97,754.01,907.97,754.01,907.97,754.01M1024,892.663C1024,892.663,1024,131.337,1024,131.337C1024,95.348,1011.12,64.474,985.323,38.677C959.526,12.88,928.652,0,892.663,0C892.663,0,131.337,0,131.337,0C95.348,0,64.474,12.88,38.677,38.677C12.88,64.474,0,95.348,0,131.337C0,131.337,0,892.663,0,892.663C0,928.652,12.88,959.526,38.677,985.323C64.474,1011.12,95.348,1024,131.337,1024C131.337,1024,892.663,1024,892.663,1024C928.652,1024,959.526,1011.12,985.323,985.323C1011.12,959.526,1024,928.652,1024,892.663C1024,892.663,1024,892.663,1024,892.663" /><glyph unicode="&#x006c;" d="M1024,939.232C1024,939.232,1024,640.57,1024,640.57C1024,629.034,1019.781,619.029,1011.344,610.554C1002.907,602.08,992.902,597.861,981.329,597.899C981.329,597.899,682.667,597.899,682.667,597.899C664,597.899,650.896,606.784,643.318,624.554C635.739,641.877,638.875,657.22,652.651,670.548C652.651,670.548,744.639,762.536,744.639,762.536C678.859,823.426,601.319,853.852,511.981,853.852C465.763,853.852,421.636,844.855,379.637,826.86C337.637,808.866,301.275,784.525,270.625,753.875C239.975,723.225,215.634,686.863,197.64,644.863C179.645,602.864,170.648,558.737,170.648,512.519C170.648,466.301,179.645,422.173,197.64,380.174C215.634,338.175,239.975,301.813,270.625,271.162C301.275,240.512,337.637,216.171,379.637,198.177C421.636,180.183,465.763,171.185,511.981,171.185C564.882,171.185,614.87,182.758,661.984,205.867C709.098,228.976,748.858,261.643,781.3,303.866C784.398,308.309,789.513,310.996,796.644,311.855C802.878,311.855,808.403,309.839,813.294,305.845C813.294,305.845,904.61,213.857,904.61,213.857C908.604,210.31,910.732,205.755,910.956,200.193C911.18,194.63,909.5,189.628,905.954,185.185C857.533,126.535,798.846,81.064,729.967,48.846C661.088,16.628,588.401,0.5,511.981,0.5C442.654,0.5,376.426,14.052,313.334,41.155C250.241,68.259,195.81,104.696,150.003,150.503C104.196,196.31,67.759,250.741,40.655,313.834C13.552,376.926,0,443.154,0,512.481C0,581.808,13.552,648.037,40.655,711.129C67.759,774.221,104.196,828.652,150.003,874.46C195.81,920.267,250.241,956.704,313.334,983.807C376.426,1010.911,442.654,1024.463,511.981,1024.463C577.314,1024.463,640.518,1012.143,701.632,987.466C762.745,962.789,817.065,928.032,864.626,883.121C864.626,883.121,951.276,969.136,951.276,969.136C964.156,982.911,979.723,986.047,997.942,978.469C1015.264,970.89,1023.925,957.786,1023.925,939.12C1023.925,939.12,1024,939.232,1024,939.232" /><glyph unicode="&#x006d;" d="M512.5,0.5C419.828,0.5,334.164,6.164,255.508,17.492C176.852,28.82,114.676,44.308,69.012,63.988C23.348,83.668,0.5,105.172,0.5,128.5C0.5,128.5,0.5,256.5,0.5,256.5C0.5,261.844,2.516,268.18,6.516,275.508C47.86,250.836,115.348,230.836,209.012,215.508C302.676,200.18,403.828,192.5,512.5,192.5C621.172,192.5,722.324,200.18,815.988,215.508C909.652,230.836,977.14,250.836,1018.484,275.508C1022.484,268.18,1024.5,261.844,1024.5,256.5C1024.5,256.5,1024.5,128.5,1024.5,128.5C1024.5,105.172,1001.652,83.668,955.988,63.988C910.324,44.308,848.148,28.82,769.492,17.492C690.836,6.164,605.172,0.5,512.5,0.5C512.5,0.5,512.5,0.5,512.5,0.5M512.5,256.5C419.828,256.5,334.164,262.164,255.508,273.492C176.852,284.82,114.676,300.308,69.012,319.988C23.348,339.668,0.5,361.172,0.5,384.5C0.5,384.5,0.5,512.5,0.5,512.5C0.5,517.844,2.516,524.18,6.516,531.508C47.86,506.836,115.348,486.836,209.012,471.508C302.676,456.18,403.828,448.5,512.5,448.5C621.172,448.5,722.324,456.18,815.988,471.508C909.652,486.836,977.14,506.836,1018.484,531.508C1022.484,524.18,1024.5,517.844,1024.5,512.5C1024.5,512.5,1024.5,384.5,1024.5,384.5C1024.5,361.172,1001.652,339.668,955.988,319.988C910.324,300.308,848.148,284.82,769.492,273.492C690.836,262.164,605.172,256.5,512.5,256.5C512.5,256.5,512.5,256.5,512.5,256.5M512.5,512.5C419.828,512.5,334.164,518.164,255.508,529.492C176.852,540.82,114.676,556.308,69.012,575.988C23.348,595.668,0.5,617.172,0.5,640.5C0.5,640.5,0.5,768.5,0.5,768.5C0.5,773.844,2.516,780.18,6.516,787.508C47.86,762.836,115.348,742.836,209.012,727.508C302.676,712.18,403.828,704.5,512.5,704.5C621.172,704.5,722.324,712.18,815.988,727.508C909.652,742.836,977.14,762.836,1018.484,787.508C1022.484,780.18,1024.5,773.844,1024.5,768.5C1024.5,768.5,1024.5,640.5,1024.5,640.5C1024.5,617.172,1001.652,595.668,955.988,575.988C910.324,556.308,848.148,540.82,769.492,529.492C690.836,518.164,605.172,512.5,512.5,512.5C512.5,512.5,512.5,512.5,512.5,512.5M512.5,768.5C419.828,768.5,334.164,774.164,255.508,785.492C176.852,796.82,114.676,812.308,69.012,831.988C23.348,851.668,0.5,873.172,0.5,896.5C0.5,919.828,23.348,941.332,69.012,961.012C114.676,980.692,176.852,996.18,255.508,1007.508C334.164,1018.836,419.828,1024.5,512.5,1024.5C605.172,1024.5,690.836,1018.836,769.492,1007.508C848.148,996.18,910.324,980.692,955.988,961.012C1001.652,941.332,1024.5,919.828,1024.5,896.5C1024.5,873.172,1001.652,851.668,955.988,831.988C910.324,812.308,848.148,796.82,769.492,785.492C690.836,774.164,605.172,768.5,512.5,768.5C512.5,768.5,512.5,768.5,512.5,768.5" /><glyph unicode="&#x006e;" d="M871.309,497.347C871.309,497.347,886.653,643.355,886.653,643.355C886.653,643.355,754.644,643.355,754.644,643.355C754.644,643.355,754.644,716.005,754.644,716.005C754.644,737.77,758.079,753.002,764.985,761.663C771.892,770.324,787.758,774.655,812.659,774.655C812.659,774.655,885.981,774.655,885.981,774.655C885.981,774.655,885.981,920.663,885.981,920.663C885.981,920.663,769.316,920.663,769.316,920.663C701.781,920.663,653.323,904.647,623.98,872.653C594.636,840.659,579.964,793.321,579.964,730.639C579.964,730.639,579.964,643.318,579.964,643.318C579.964,643.318,492.643,643.318,492.643,643.318C492.643,643.318,492.643,497.31,492.643,497.31C492.643,497.31,579.964,497.31,579.964,497.31C579.964,497.31,579.964,73.994,579.964,73.994C579.964,73.994,754.644,73.994,754.644,73.994C754.644,73.994,754.644,497.31,754.644,497.31C754.644,497.31,871.309,497.31,871.309,497.31C871.309,497.31,871.309,497.347,871.309,497.347M1024,831.998C1024,831.998,1024,192.002,1024,192.002C1024,139.102,1005.222,93.892,967.665,56.335C930.108,18.778,884.898,0,831.998,0C831.998,0,192.002,0,192.002,0C139.102,0,93.892,18.778,56.335,56.335C18.778,93.892,0,139.102,0,192.002C0,192.002,0,831.998,0,831.998C0,884.898,18.778,930.108,56.335,967.665C93.892,1005.222,139.102,1024,192.002,1024C192.002,1024,831.998,1024,831.998,1024C884.898,1024,930.108,1005.222,967.665,967.665C1005.222,930.108,1024,884.898,1024,831.998C1024,831.998,1024,831.998,1024,831.998" /><glyph unicode="&#x006f;" d="M1004.04,468.027C991.06,455.047,975.396,448.557,957.077,448.557C938.759,448.557,923.254,454.887,910.626,467.547C910.626,467.547,895.633,482.541,895.633,482.541C895.633,482.541,895.633,63.938,895.633,63.938C895.633,46.611,889.463,31.617,877.155,18.99C864.847,6.362,849.693,0.032,831.695,0C831.695,0,639.881,0,639.881,0C639.881,0,639.881,287.721,639.881,287.721C639.881,296.385,636.716,303.866,630.386,310.195C624.056,316.525,616.575,319.69,607.912,319.69C607.912,319.69,416.097,319.69,416.097,319.69C407.434,319.69,399.953,316.525,393.623,310.195C387.293,303.866,384.128,296.385,384.128,287.721C384.128,287.721,384.128,0,384.128,0C384.128,0,192.314,0,192.314,0C174.316,0,159.162,6.33,146.854,18.99C134.546,31.649,128.376,46.643,128.376,63.938C128.376,63.938,128.376,482.541,128.376,482.541C128.376,482.541,113.383,467.547,113.383,467.547C100.723,454.887,85.25,448.557,66.932,448.557C48.613,448.557,32.981,455.047,19.969,468.027C6.958,481.006,0.468,496.671,0.5,514.989C0.532,533.307,6.862,548.812,19.49,561.44C19.49,561.44,463.06,1005.01,463.06,1005.01C476.391,1018.341,492.695,1024.671,512.004,1024C531.314,1024.671,547.618,1018.341,560.949,1005.01C560.949,1005.01,1004.519,561.44,1004.519,561.44C1017.179,548.78,1023.509,533.307,1023.509,514.989C1023.509,496.671,1017.019,481.038,1004.04,468.027C1004.04,468.027,1004.04,468.027,1004.04,468.027" /><glyph unicode="&#x0070;" d="M409.588,375.794C409.588,375.794,614.382,375.794,614.382,375.794C614.382,375.794,614.382,426.985,614.382,426.985C614.382,426.985,546.107,426.985,546.107,426.985C546.107,426.985,546.107,665.917,546.107,665.917C546.107,665.917,485.299,665.917,485.299,665.917C485.299,665.917,406.362,592.863,406.362,592.863C406.362,592.863,447.429,550.184,447.429,550.184C462.362,563.355,472.128,573.48,476.758,580.588C476.758,580.588,477.833,580.588,477.833,580.588C477.833,580.588,477.833,426.985,477.833,426.985C477.833,426.985,409.558,426.985,409.558,426.985C409.558,426.985,409.558,375.794,409.558,375.794C409.558,375.794,409.588,375.794,409.588,375.794M682.657,512.314C682.657,487.435,678.923,462.168,671.457,436.572C663.99,410.977,653.417,387.143,639.709,365.102C626,343.061,607.961,325.111,585.561,311.223C563.161,297.335,538.641,290.406,511.97,290.436C485.299,290.466,460.779,297.395,438.379,311.223C415.979,325.051,397.94,343.031,384.231,365.102C370.523,387.173,359.95,411.007,352.483,436.572C345.017,462.138,341.283,487.375,341.283,512.314C341.283,537.252,345.017,562.489,352.483,588.055C359.95,613.62,370.523,637.454,384.231,659.525C397.94,681.596,415.979,699.576,438.379,713.404C460.779,727.232,485.299,734.161,511.97,734.191C538.641,734.221,563.161,727.292,585.561,713.404C607.961,699.516,626,681.567,639.709,659.525C653.417,637.484,663.99,613.65,671.457,588.055C678.923,562.459,682.657,537.192,682.657,512.314C682.657,512.314,682.657,512.314,682.657,512.314M955.725,375.794C955.725,375.794,955.725,648.863,955.725,648.863C918.034,648.863,885.868,662.183,859.197,688.854C832.526,715.525,819.206,747.691,819.206,785.382C819.206,785.382,204.824,785.382,204.824,785.382C204.824,747.691,191.503,715.525,164.833,688.854C138.162,662.183,105.996,648.863,68.304,648.863C68.304,648.863,68.304,375.794,68.304,375.794C105.996,375.794,138.162,362.474,164.833,335.803C191.503,309.132,204.824,276.966,204.824,239.275C204.824,239.275,819.206,239.275,819.206,239.275C819.206,276.966,832.526,309.132,859.197,335.803C885.868,362.474,918.034,375.794,955.725,375.794C955.725,375.794,955.725,375.794,955.725,375.794M1024,819.519C1024,819.519,1024,205.138,1024,205.138C1024,195.909,1020.625,187.905,1013.875,181.125C1007.125,174.345,999.121,170.97,989.862,171C989.862,171,34.137,171,34.137,171C24.909,171,16.904,174.375,10.125,181.125C3.345,187.875,-0.03,195.879,0,205.138C0,205.138,0,819.519,0,819.519C0,828.748,3.375,836.752,10.125,843.532C16.875,850.312,24.879,853.687,34.137,853.657C34.137,853.657,989.862,853.657,989.862,853.657C999.091,853.657,1007.095,850.282,1013.875,843.532C1020.655,836.782,1024.03,828.778,1024,819.519C1024,819.519,1024,819.519,1024,819.519" /><glyph unicode="&#x0071;" d="M100.329,1024C100.329,1024,925.338,1024,925.338,1024C925.338,1024,925.338,0,925.338,0C925.338,0,100.329,0,100.329,0C100.329,2.018,100.329,4.036,100.329,6.054C100.329,6.054,100.329,1018.811,100.329,1018.811C100.185,1020.541,100.293,1022.27,100.329,1024C100.329,1024,100.329,1024,100.329,1024M357.95,577.874C358.491,578.919,358.815,579.532,359.104,580.18C368.257,601.802,377.374,623.423,386.671,645.045C387.896,647.856,387.068,649.045,384.797,650.523C337.266,681.117,285.77,693.766,229.842,682.45C182.995,673.009,150.563,641.117,146.563,593.117C144.617,569.694,148.041,547.387,162.383,527.856C173.839,512.71,189.507,501.279,207.428,494.991C225.446,488.072,243.896,482.595,262.167,476.432C273.734,472.541,285.446,468.793,295.14,460.865C311.05,449.16,308.318,424.62,290.228,416.695C289.478,416.368,288.711,416.076,287.932,415.82C276.826,412,264.88,411.315,253.41,413.838C223.752,419.243,197.662,432.577,173.77,450.559C168.401,454.595,163.356,459.099,157.95,463.604C157.95,463.604,127.14,394.559,127.14,394.559C128.041,393.73,128.653,393.117,129.302,392.577C179.068,350.847,235.716,332.829,300.329,343.64C323.785,347.052,345.457,358.112,361.986,375.099C383.608,397.766,390.239,425.55,387.86,456C385.158,490.342,367.464,514.739,337.41,530.126C326.033,535.683,314.35,540.595,302.419,544.829C287.464,550.378,272.185,554.991,257.194,560.468C248.65,563.204,240.995,568.18,235.032,574.883C223.86,588.432,229.086,606.811,245.842,611.748C251.179,613.514,256.819,614.173,262.419,613.694C274.109,612.202,285.666,609.795,296.977,606.486C318.469,599.668,338.97,590.05,357.95,577.874C357.95,577.874,357.95,577.874,357.95,577.874M572.473,342.991C572.473,342.991,572.473,609.261,572.473,609.261C572.473,609.261,662.203,609.261,662.203,609.261C662.203,609.261,662.203,681.333,662.203,681.333C662.203,681.333,403.14,681.333,403.14,681.333C403.14,681.333,403.14,609.261,403.14,609.261C403.14,609.261,493.23,609.261,493.23,609.261C493.23,609.261,493.23,342.847,493.23,342.847C493.23,342.847,572.473,342.991,572.473,342.991M694.995,342.991C694.995,342.991,900.041,342.991,900.041,342.991C900.041,342.991,900.041,418.811,900.041,418.811C900.041,418.811,773.914,418.811,773.914,418.811C773.914,418.811,773.914,681.297,773.914,681.297C773.914,681.297,694.887,681.297,694.887,681.297C694.887,681.297,694.995,342.991,694.995,342.991M100.329,1024C100.329,1022.27,100.329,1020.396,100.329,1018.811C100.329,1018.811,100.329,6.198,100.329,6.198C100.329,4.18,100.329,2.162,100.329,0.144C100.041,0.144,99.5,0.432,99.5,0.577C99.5,1.73,99.5,2.883,99.5,4.18C99.5,342.919,99.5,681.658,99.5,1020.396C99.659,1021.622,99.936,1022.829,100.329,1024C100.329,1024,100.329,1024,100.329,1024" class="icon-stl-icone"/></font>
</defs>
</svg>
